#TITLE:Sexy;
#SUBTITLE:;
#ARTIST:Babyvox Re.v;
#TITLETRANSLIT:;
#SUBTITLETRANSLIT:;
#ARTISTTRANSLIT:;
#CREDIT:;
#BANNER:sexy_logo.jpg;
#BACKGROUND:sexy_bg.jpg;
#LYRICSPATH:;
#CDTITLE:Lan.png;
#MUSIC:Sexy.mp3;
#OFFSET:-0.020;
#SAMPLESTART:100.000;
#SAMPLELENGTH:12.000;
#SELECTABLE:YES;
#BPMS:0.000=100.000;
#STOPS:;
#BGCHANGES:;
// cache tags:
#FIRSTBEAT:4.000;
#LASTBEAT:211.000;
#SONGFILENAME:Songs/Super Dancer Online/Sexy/Sexy.sm;
#HASMUSIC:1;
#HASBANNER:1;
#MUSICLENGTH:128.851;
// end cache tags

//---------------dance-single - sky----------------
#NOTES:
     dance-single:
     sky:
     Hard:
     9:
     0.628,0.757,0.924,0.000,0.411,447.000,119.000,0.000,0.000,0.000:

0000
0000
0000
0000
,
1000
0000
0000
0000
0010
0000
0000
0000
0001
0000
0010
0100
0000
0000
0000
0000
,
1000
0100
0001
0001
0000
0100
0110
0000
,
0001
0000
0000
0000
0001
0000
0000
0000
0010
0000
1000
0100
0000
0000
0000
0000
,
0010
0000
0100
0000
0010
0000
0000
0100
0000
0000
1000
0000
0101
0000
0000
0000
,
1000
0011
1000
0011
,
0110
0000
0000
0000
0010
0000
0000
0000
0100
0000
0000
0000
0001
0010
0100
0010
,
1100
0001
0000
0010
,
0110
0000
1000
0000
0110
1100
0011
0000
,
1000
0010
0101
0010
1000
0001
0110
0001
,
0010
0000
0001
0000
1010
0000
0010
0000
0101
0000
0000
0000
0011
0100
1000
0100
,
0010
1000
0110
0001
0100
0001
0011
0100
,
0010
0000
1001
0100
0011
0011
1100
0000
,
0011
1000
0010
0100
1010
0001
0100
0000
,
0010
0000
0100
0000
1010
0000
0100
0000
0011
0000
0000
0000
0101
1000
0110
0001
,
1100
0010
0101
0000
0100
0000
0011
0000
,
1100
0010
0001
0010
0101
1100
0011
0000
,
1100
0010
0001
0010
0101
1000
0100
0010
0100
0010
0001
0010
0101
0010
0001
0100
,
1000
0010
0100
0010
1001
0010
0001
0010
0100
1000
0010
0100
1010
0001
0010
0001
,
0100
0010
0100
0010
0101
0100
1000
0100
0010
0100
0010
0001
1010
0100
0010
1000
,
0100
0010
0001
0010
1100
0000
0010
0000
0100
0000
1001
0000
0110
0000
0000
0000
,
1000
1001
1000
1010
,
0100
0000
0101
0000
0100
0010
1100
0000
,
0001
1001
0001
1001
,
0100
0000
0011
0000
0100
0011
0101
0000
,
1000
0100
0011
0001
1010
0010
0101
0010
,
0001
0000
0010
0000
1001
0000
0001
0000
0110
0000
0001
0000
1100
0010
0001
0100
,
0001
0100
0110
0001
1010
0100
0101
1000
,
0100
0001
1000
0001
1010
0110
0101
0000
,
0101
0010
0101
0010
1010
0001
0101
0000
,
0110
0000
0001
0000
0011
0000
0010
0000
1100
0000
0010
0000
0011
0100
1000
0010
,
0100
0010
0100
0010
0001
0010
0100
1000
0100
0010
0100
1000
0100
0010
0100
1000
,
0001
0010
0100
0010
0001
0100
0010
0100
0010
0000
0110
0000
0011
0000
0000
0000
,
1001
0100
0011
1000
1001
0001
0110
0000
,
0101
0000
1000
0000
1010
0000
0010
0000
1001
0000
0100
0000
1001
0010
1000
0001
,
0100
0001
0100
1000
0001
1000
0100
0010
0100
0001
0010
1000
0100
0001
0010
1000
,
0001
0010
0100
1000
0001
0100
1000
0010
1000
0000
0110
0000
1001
0000
0000
0000
,
0100
0010
0100
0010
0011
0000
0000
0000
1000
0100
0010
0100
1001
0000
0000
0000
,
0001
0010
0100
0010
0011
0000
0000
0000
1000
0100
0010
0100
0011
0000
0000
0000
,
0010
0001
0010
0001
1100
0000
0000
0000
0100
0010
0100
1000
0101
0000
0000
0000
,
0010
0001
0010
0001
0110
0000
0000
0000
1000
0100
0100
1000
0110
0000
0000
0000
,
0010
0001
0010
0100
0011
0000
0000
0000
0100
0010
0001
0010
1100
0000
0000
0000
,
0011
0001
0010
0001
0110
0000
0000
0000
0110
0001
0010
0100
0011
0000
0000
0000
,
1100
0100
1000
0100
0011
0000
0000
0000
1001
0010
0100
0010
1100
0000
0000
0000
,
1000
0100
0001
0010
1100
0011
0110
0000
,
0100
0000
0010
0001
1000
0000
0100
0010
0001
0000
0100
1000
0010
0000
0010
0001
,
0010
0100
1000
0100
0010
0001
0010
0000
1000
0000
0100
0010
1000
0000
0100
0010
,
0001
0000
0100
1000
0100
0000
0010
0001
0100
0000
0010
0100
1000
0000
0100
0001
,
1000
0100
0010
0100
0001
0010
0010
0000
,
1010
0100
0101
0010
1010
0100
0011
0100
,
0011
1000
1010
0100
0011
0100
1010
0000
,
0100
0010
1010
0100
0011
0010
0100
0010
,
1000
0100
0010
0100
1001
0101
0011
0000
;
